BD Info Scans

A place to discuss DVDs and Blu-Rays!

Moderator: Forum Team

BD Info Scans

Postby Samuel_Scott » 20 Jan 2015 19:53

Dump any BD-Info scans you'd like to share with us in this thread. I find them pretty interesting. 8)

Boyhood (2014) (Universal) (UK) - Page 1
Conan the Barbarian (1984) (Universal) (USA) - Page 1
Dead of Night (1945) (Studio Canal) (UK) - Page 1
The Lake House (2007) (Warner) (UK) - Page 1
Lucy (2014) (Universal) (USA) - Page 1
Only Lovers Left Alive (2013) (Alive) (Germany) - Page 1
Switchblade Romance (2003) (Optimum) (UK) - Page 1
I work away a lot but I will reply to all PM's within a few days so please have patience!
My 2015 viewing diary - http://www.letterboxd.com/samdvd1/films ... year/2015/
Goal for 2016: 730 films.
Samuel_Scott
Rewind Administrator
Rewind Administrator
 
Posts: 5689
Joined: 15 Oct 2002 19:19
Location: UK

Re: BD Info Scans

Postby Samuel_Scott » 20 Jan 2015 19:53

The Lake House (2007) (Warner) (UK)

Code: Select all
                                                                                                                Total   Video                                             
Title                                                           Codec   Length  Movie Size      Disc Size       Bitrate Bitrate Main Audio Track                          Secondary Audio Track
-----                                                           ------  ------- --------------  --------------  ------- ------- ------------------                        ---------------------
00000.MPLS                                                      VC-1    1:38:33 13,153,480,704  14,247,866,422  17.79   14.41   DD AC3 5.1 640Kbps                       


Code: Select all

DISC INFO:

Disc Title:     LOGICAL_VOLUME_ID
Disc Size:      14,247,866,422 bytes
Protection:     AACS
BD-Java:        No
BDInfo:         0.5.8

PLAYLIST REPORT:

Name:                   00000.MPLS
Length:                 1:38:33.699 (h:m:s.ms)
Size:                   13,153,480,704 bytes
Total Bitrate:          17.79 Mbps

VIDEO:

Codec                   Bitrate             Description     
-----                   -------             -----------     
VC-1 Video              14414 kbps          1080p / 23.976 fps / 16:9 / Advanced Profile 3

AUDIO:

Codec                           Language        Bitrate         Description     
-----                           --------        -------         -----------     
Dolby Digital Audio             English         640 kbps        5.1 / 48 kHz / 640 kbps / DN -4dB
Dolby Digital Audio             English         192 kbps        2.0 / 48 kHz / 192 kbps / DN -4dB / Dolby Surround
Dolby Digital Audio             French          640 kbps        5.1 / 48 kHz / 640 kbps / DN -4dB
Dolby Digital Audio             German          640 kbps        5.1 / 48 kHz / 640 kbps / DN -4dB

SUBTITLES:

Codec                           Language        Bitrate         Description     
-----                           --------        -------         -----------     
Presentation Graphics           English         47.394 kbps                     
Presentation Graphics           English         51.151 kbps                     
Presentation Graphics           French          46.352 kbps                     
Presentation Graphics           German          54.879 kbps                     
Presentation Graphics           German          58.820 kbps                     

FILES:

Name            Time In         Length          Size            Total Bitrate   
----            -------         ------          ----            -------------   
00000.M2TS      0:00:00.000     1:38:33.699     13,153,480,704  17,794         

CHAPTERS:

Number          Time In         Length          Avg Video Rate  Max 1-Sec Rate  Max 1-Sec Time  Max 5-Sec Rate  Max 5-Sec Time  Max 10Sec Rate  Max 10Sec Time  Avg Frame Size  Max Frame Size  Max Frame Time 
------          -------         ------          --------------  --------------  --------------  --------------  --------------  --------------  --------------  --------------  --------------  -------------- 
1               0:00:00.000     0:03:35.381     15,286 kbps     36,269 kbps     00:02:14.759    23,695 kbps     00:02:10.672    21,567 kbps     00:02:05.959    80,037 bytes    547,711 bytes   00:02:34.070   
2               0:03:35.381     0:04:02.909     14,813 kbps     25,877 kbps     00:07:27.655    24,277 kbps     00:07:25.862    23,590 kbps     00:07:23.568    77,230 bytes    446,031 bytes   00:05:13.980   
3               0:07:38.291     0:05:39.839     15,478 kbps     29,513 kbps     00:08:50.821    24,923 kbps     00:08:50.696    22,128 kbps     00:08:47.652    80,693 bytes    559,294 bytes   00:10:56.530   
4               0:13:18.130     0:03:59.072     16,087 kbps     28,384 kbps     00:15:29.762    22,204 kbps     00:15:29.386    19,826 kbps     00:16:18.394    83,868 bytes    296,459 bytes   00:15:31.180   
5               0:17:17.202     0:06:22.215     13,409 kbps     27,718 kbps     00:19:52.900    22,698 kbps     00:18:20.140    21,086 kbps     00:18:14.885    69,910 bytes    608,313 bytes   00:18:14.468   
6               0:23:39.417     0:03:19.032     15,019 kbps     33,637 kbps     00:24:40.270    23,644 kbps     00:24:40.270    18,862 kbps     00:26:02.894    78,305 bytes    461,502 bytes   00:24:40.312   
7               0:26:58.450     0:05:46.179     14,544 kbps     31,330 kbps     00:32:17.060    23,190 kbps     00:32:07.175    21,386 kbps     00:31:41.900    75,826 bytes    345,576 bytes   00:32:44.045   
8               0:32:44.629     0:03:55.735     14,351 kbps     30,519 kbps     00:33:49.694    21,441 kbps     00:34:33.362    20,120 kbps     00:34:04.459    74,819 bytes    441,964 bytes   00:33:49.944   
9               0:36:40.364     0:03:45.058     15,722 kbps     33,527 kbps     00:37:05.139    23,419 kbps     00:37:04.764    22,095 kbps     00:40:08.656    81,967 bytes    428,187 bytes   00:37:05.181   
10              0:40:25.422     0:05:20.320     15,981 kbps     30,625 kbps     00:42:52.444    22,439 kbps     00:44:51.939    20,864 kbps     00:44:49.812    83,319 bytes    376,797 bytes   00:43:52.880   
11              0:45:45.743     0:04:42.115     15,639 kbps     23,578 kbps     00:47:28.971    20,898 kbps     00:45:46.201    20,562 kbps     00:45:46.201    81,536 bytes    302,845 bytes   00:46:27.701   
12              0:50:27.858     0:08:56.869     13,722 kbps     25,191 kbps     00:57:45.086    24,155 kbps     00:57:41.583    21,876 kbps     00:57:36.911    71,573 bytes    280,578 bytes   00:57:38.121   
13              0:59:24.727     0:03:56.569     14,643 kbps     30,373 kbps     01:00:29.792    23,481 kbps     01:00:29.792    21,669 kbps     01:00:29.792    76,615 bytes    459,454 bytes   01:00:04.934   
14              1:03:21.297     0:06:02.695     15,928 kbps     28,285 kbps     01:07:15.823    24,057 kbps     01:09:08.519    22,949 kbps     01:09:09.186    83,126 bytes    438,045 bytes   01:07:15.865   
15              1:09:23.993     0:03:50.897     12,131 kbps     20,345 kbps     01:09:41.385    18,442 kbps     01:09:47.141    16,877 kbps     01:09:40.801    63,441 bytes    335,266 bytes   01:09:41.427   
16              1:13:14.890     0:02:33.653     14,366 kbps     33,116 kbps     01:15:25.562    24,177 kbps     01:15:04.333    21,688 kbps     01:14:03.814    75,145 bytes    357,118 bytes   01:15:23.268   
17              1:15:48.544     0:04:32.939     12,494 kbps     24,862 kbps     01:19:22.132    20,201 kbps     01:19:21.548    19,168 kbps     01:19:50.160    65,346 bytes    561,139 bytes   01:18:01.968   
18              1:20:21.483     0:04:29.269     16,159 kbps     28,247 kbps     01:21:43.690    24,219 kbps     01:21:30.760    23,178 kbps     01:21:48.945    84,310 bytes    290,913 bytes   01:20:33.078   
19              1:24:50.752     0:03:20.366     12,185 kbps     23,682 kbps     01:28:05.321    19,729 kbps     01:26:45.074    19,013 kbps     01:26:42.155    63,604 bytes    282,280 bytes   01:28:06.281   
20              1:28:11.119     0:06:52.411     16,251 kbps     29,887 kbps     01:33:36.152    24,690 kbps     01:30:55.199    22,566 kbps     01:31:35.239    84,968 bytes    365,111 bytes   01:33:07.665   
21              1:35:03.531     0:03:30.168     5,344 kbps      11,347 kbps     01:38:18.434    10,033 kbps     01:38:15.806    8,662 kbps      01:38:13.178    27,941 bytes    294,275 bytes   01:38:30.738   
I work away a lot but I will reply to all PM's within a few days so please have patience!
My 2015 viewing diary - http://www.letterboxd.com/samdvd1/films ... year/2015/
Goal for 2016: 730 films.
Samuel_Scott
Rewind Administrator
Rewind Administrator
 
Posts: 5689
Joined: 15 Oct 2002 19:19
Location: UK

Re: BD Info Scans

Postby Samuel_Scott » 20 Jan 2015 20:02

Conan the Barbarian (1984) (Universal) (USA)

Code: Select all
                                                                                                                Total   Video                                             
Title                                                           Codec   Length  Movie Size      Disc Size       Bitrate Bitrate Main Audio Track                          Secondary Audio Track
-----                                                           ------  ------- --------------  --------------  ------- ------- ------------------                        ---------------------
00800.MPLS                                                      AVC     2:10:31 36.849.530.880  47.112.211.706  37,64   25,20   DTS-HD Master 5.1 3220Kbps (48kHz/24-bit) DD AC3 1.0 192Kbps


Code: Select all

DISC INFO:

Disc Title:     CONAN_THE_BARBARIAN
Disc Size:      47.112.211.706 bytes
Protection:     BD+
BD-Java:        Yes
BDInfo:         0.5.6

PLAYLIST REPORT:

Name:                   00800.MPLS
Length:                 2:10:31 (h:m:s)
Size:                   36.849.530.880 bytes
Total Bitrate:          37,64 Mbps

(*) Indicates included stream hidden by this playlist.

VIDEO:

Codec                   Bitrate             Description     
-----                   -------             -----------     
MPEG-4 AVC Video        25200 kbps          1080p / 23,976 fps / 16:9 / High Profile 4.1

AUDIO:

Codec                           Language        Bitrate         Description     
-----                           --------        -------         -----------     
DTS-HD Master Audio             English         3220 kbps       5.1 / 48 kHz / 3220 kbps / 24-bit (DTS Core: 5.1 / 48 kHz / 1509 kbps / 24-bit)
DTS Audio                       French          768 kbps        5.1 / 48 kHz / 768 kbps / 24-bit
DTS Audio                       Italian         768 kbps        5.1 / 48 kHz / 768 kbps / 24-bit
* DTS Audio                     Japanese        768 kbps        5.1 / 48 kHz / 768 kbps / 24-bit
DTS Audio                       Russian         768 kbps        5.1 / 48 kHz / 768 kbps / 24-bit
DTS Audio                       Spanish         768 kbps        5.1 / 48 kHz / 768 kbps / 24-bit
Dolby Digital Audio             Czech           448 kbps        5.1 / 48 kHz / 448 kbps
Dolby Digital Audio             Hungarian       448 kbps        5.1 / 48 kHz / 448 kbps
Dolby Digital Audio             Portuguese      448 kbps        5.1 / 48 kHz / 448 kbps
Dolby Digital Audio             Thai            448 kbps        5.1 / 48 kHz / 448 kbps
Dolby Digital Audio             Turkish         448 kbps        5.1 / 48 kHz / 448 kbps
Dolby Digital Audio             English         192 kbps        1.0 / 48 kHz / 192 kbps
Dolby Digital Audio             English         192 kbps        1.0 / 48 kHz / 192 kbps

SUBTITLES:

Codec                           Language        Bitrate         Description     
-----                           --------        -------         -----------     
Presentation Graphics           English         11,305 kbps                     
Presentation Graphics           English         47,882 kbps                     
Presentation Graphics           Chinese         8,109 kbps                     
Presentation Graphics           Chinese         8,222 kbps                     
Presentation Graphics           Chinese         8,155 kbps                     
Presentation Graphics           Chinese         33,343 kbps                     
Presentation Graphics           Croatian        8,023 kbps                     
Presentation Graphics           Czech           7,596 kbps                     
Presentation Graphics           Danish          8,161 kbps                     
Presentation Graphics           Dutch           8,799 kbps                     
Presentation Graphics           Finnish         8,709 kbps                     
Presentation Graphics           French          8,990 kbps                     
Presentation Graphics           French          36,099 kbps                     
Presentation Graphics           Greek           8,721 kbps                     
Presentation Graphics           Hebrew          6,385 kbps                     
Presentation Graphics           Hungarian       8,236 kbps                     
Presentation Graphics           Icelandic       8,518 kbps                     
Presentation Graphics           Italian         8,741 kbps                     
* Presentation Graphics         Japanese        6,589 kbps                     
* Presentation Graphics         Japanese        28,362 kbps                     
* Presentation Graphics         Japanese        1,329 kbps                     
Presentation Graphics           Korean          6,770 kbps                     
Presentation Graphics           Norwegian       7,851 kbps                     
Presentation Graphics           Polish          7,982 kbps                     
Presentation Graphics           Portuguese      8,885 kbps                     
Presentation Graphics           Portuguese      9,146 kbps                     
Presentation Graphics           Russian         8,505 kbps                     
Presentation Graphics           Spanish         8,871 kbps                     
Presentation Graphics           Spanish         8,614 kbps                     
Presentation Graphics           Swedish         8,192 kbps                     
Presentation Graphics           Thai            7,694 kbps                     
Presentation Graphics           Turkish         8,480 kbps                     

FILES:

Name            Time In         Length          Size            Total Bitrate   
----            -------         ------          ----            -------------   
00882.M2TS      0:00:00.000     0:06:39.774     1.926.918.144   38.560         
00883.M2TS      0:06:39.774     0:01:51.361     522.952.704     37.568         
00884.M2TS      0:08:31.135     0:24:51.698     6.972.690.432   37.395         
00885.M2TS      0:33:22.834     0:01:37.514     465.272.832     38.171         
00886.M2TS      0:35:00.348     1:14:40.434     21.083.516.928  37.645         
00887.M2TS      1:49:40.782     0:02:23.393     677.001.216     37.770         
00889.M2TS      1:52:04.175     0:18:27.689     5.201.178.624   37.564         

CHAPTERS:

Number          Time In         Length          Avg Video Rate  Max 1-Sec Rate  Max 1-Sec Time  Max 5-Sec Rate  Max 5-Sec Time  Max 10Sec Rate  Max 10Sec Time  Avg Frame Size  Max Frame Size  Max Frame Time 
------          -------         ------          --------------  --------------  --------------  --------------  --------------  --------------  --------------  --------------  --------------  -------------- 
1               0:00:00.000     0:13:35.147     25.104 kbps     39.661 kbps     00:01:55.740    33.122 kbps     00:01:51.694    32.325 kbps     00:01:46.731    130.877 bytes   442.907 bytes   00:01:56.574   
2               0:13:35.147     0:04:03.534     26.003 kbps     31.326 kbps     00:14:22.361    30.914 kbps     00:14:19.108    29.328 kbps     00:16:43.752    135.565 bytes   266.070 bytes   00:17:34.845   
3               0:17:38.682     0:06:30.640     25.465 kbps     30.512 kbps     00:19:37.009    28.983 kbps     00:18:26.605    28.765 kbps     00:18:21.016    132.760 bytes   270.106 bytes   00:21:45.512   
4               0:24:09.322     0:05:35.877     24.408 kbps     30.738 kbps     00:27:38.782    30.111 kbps     00:27:38.782    27.449 kbps     00:24:38.518    127.255 bytes   221.201 bytes   00:25:32.405   
5               0:29:45.200     0:07:10.388     25.370 kbps     33.378 kbps     00:34:06.085    31.888 kbps     00:34:02.039    31.630 kbps     00:33:56.993    132.267 bytes   236.749 bytes   00:30:20.151   
6               0:36:55.588     0:11:43.703     25.421 kbps     33.032 kbps     00:37:59.235    32.014 kbps     00:38:22.174    31.676 kbps     00:37:30.706    132.534 bytes   243.880 bytes   00:38:18.671   
7               0:48:39.291     0:11:13.255     24.033 kbps     30.273 kbps     00:55:46.843    28.373 kbps     00:55:04.926    27.744 kbps     00:54:59.879    125.295 bytes   229.526 bytes   00:55:47.594   
8               0:59:52.547     0:05:23.614     26.234 kbps     31.905 kbps     01:00:52.815    31.427 kbps     01:00:48.811    30.621 kbps     01:01:13.127    136.774 bytes   273.792 bytes   01:01:18.257   
9               1:05:16.162     0:10:45.269     25.115 kbps     30.732 kbps     01:15:16.595    30.069 kbps     01:11:00.923    30.033 kbps     01:10:56.293    130.938 bytes   304.619 bytes   01:11:21.902   
10              1:16:01.431     0:07:43.004     27.518 kbps     33.601 kbps     01:21:27.173    31.943 kbps     01:21:23.211    31.673 kbps     01:21:18.123    143.466 bytes   262.658 bytes   01:22:48.254   
11              1:23:44.436     0:14:17.898     24.684 kbps     32.054 kbps     01:23:46.646    31.515 kbps     01:37:13.369    30.073 kbps     01:37:11.450    128.691 bytes   288.924 bytes   01:33:02.493   
12              1:38:02.334     0:06:01.235     24.508 kbps     32.065 kbps     01:43:35.667    31.595 kbps     01:42:42.197    31.543 kbps     01:42:47.536    127.775 bytes   256.890 bytes   01:38:31.572   
13              1:44:03.570     0:12:21.407     25.438 kbps     32.631 kbps     01:44:46.363    31.787 kbps     01:44:51.243    31.716 kbps     01:44:51.243    132.624 bytes   264.135 bytes   01:44:44.653   
14              1:56:24.977     0:09:37.368     25.116 kbps     31.198 kbps     02:01:15.976    30.295 kbps     02:04:11.026    29.277 kbps     02:04:06.689    130.943 bytes   211.257 bytes   02:05:59.802   
15              2:06:02.346     0:04:29.519     24.503 kbps     31.427 kbps     02:07:46.366    30.781 kbps     02:07:43.072    30.623 kbps     02:07:39.818    127.768 bytes   289.441 bytes   02:10:11.261   

I work away a lot but I will reply to all PM's within a few days so please have patience!
My 2015 viewing diary - http://www.letterboxd.com/samdvd1/films ... year/2015/
Goal for 2016: 730 films.
Samuel_Scott
Rewind Administrator
Rewind Administrator
 
Posts: 5689
Joined: 15 Oct 2002 19:19
Location: UK

Re: BD Info Scans

Postby Samuel_Scott » 20 Jan 2015 20:29

Switchblade Romance (2003) (Optimum) (UK)

Code: Select all
                                                                                                                Total   Video                                             
Title                                                           Codec   Length  Movie Size      Disc Size       Bitrate Bitrate Main Audio Track                          Secondary Audio Track
-----                                                           ------  ------- --------------  --------------  ------- ------- ------------------                        ---------------------
00000.MPLS                                                      AVC     1:30:45 18,987,008,448  19,178,441,546  27.89   22.00   LPCM 2.0 2304Kbps (48kHz/24-bit)          DTS-HD Master 5.1 2159Kbps (48kHz/16-bit)


Code: Select all

DISC INFO:

Disc Title:     SWITCHBLADE RomaNCE
Disc Size:      19,178,441,546 bytes
Protection:     AACS
BD-Java:        No
BDInfo:         0.5.8

PLAYLIST REPORT:

Name:                   00000.MPLS
Length:                 1:30:45.440 (h:m:s.ms)
Size:                   18,987,008,448 bytes
Total Bitrate:          27.89 Mbps

VIDEO:

Codec                   Bitrate             Description     
-----                   -------             -----------     
MPEG-4 AVC Video        21998 kbps          1080p / 23.976 fps / 16:9 / High Profile 4.1

AUDIO:

Codec                           Language        Bitrate         Description     
-----                           --------        -------         -----------     
LPCM Audio                      French          2304 kbps       2.0 / 48 kHz / 2304 kbps / 24-bit
DTS-HD Master Audio             French          2159 kbps       5.1 / 48 kHz / 2159 kbps / 16-bit (DTS Core: 5.1 / 48 kHz / 768 kbps / 16-bit)

SUBTITLES:

Codec                           Language        Bitrate         Description     
-----                           --------        -------         -----------     
Presentation Graphics           English         6.725 kbps                     

FILES:

Name            Time In         Length          Size            Total Bitrate   
----            -------         ------          ----            -------------   
00000.M2TS      0:00:00.000     1:30:45.440     18,987,008,448  27,894         

CHAPTERS:

Number          Time In         Length          Avg Video Rate  Max 1-Sec Rate  Max 1-Sec Time  Max 5-Sec Rate  Max 5-Sec Time  Max 10Sec Rate  Max 10Sec Time  Avg Frame Size  Max Frame Size  Max Frame Time 
------          -------         ------          --------------  --------------  --------------  --------------  --------------  --------------  --------------  --------------  --------------  -------------- 
1               0:00:00.000     0:07:25.903     20,676 kbps     34,288 kbps     00:06:23.007    32,014 kbps     00:02:54.048    29,644 kbps     00:06:05.740    107,784 bytes   299,228 bytes   00:02:35.321   
2               0:07:25.903     0:09:05.378     20,585 kbps     40,935 kbps     00:09:58.723    39,934 kbps     00:09:58.598    36,901 kbps     00:09:56.262    107,321 bytes   312,962 bytes   00:10:04.770   
3               0:16:31.281     0:06:27.011     19,467 kbps     33,162 kbps     00:22:06.241    27,698 kbps     00:21:42.217    26,539 kbps     00:18:29.691    101,492 bytes   368,958 bytes   00:20:40.030   
4               0:22:58.293     0:08:13.659     20,761 kbps     33,692 kbps     00:23:33.912    28,581 kbps     00:27:29.439    26,778 kbps     00:27:29.564    108,238 bytes   284,516 bytes   00:23:31.910   
5               0:31:11.953     0:06:37.563     21,536 kbps     36,366 kbps     00:37:20.488    29,824 kbps     00:37:10.269    28,816 kbps     00:37:19.862    112,279 bytes   270,538 bytes   00:37:39.215   
6               0:37:49.517     0:07:32.368     21,973 kbps     40,227 kbps     00:39:02.173    34,266 kbps     00:39:13.476    32,333 kbps     00:39:11.057    114,558 bytes   321,651 bytes   00:38:48.534   
7               0:45:21.885     0:09:00.581     22,154 kbps     37,866 kbps     00:54:13.750    31,187 kbps     00:54:00.737    29,707 kbps     00:50:11.007    115,501 bytes   313,596 bytes   00:49:41.812   
8               0:54:22.467     0:09:04.627     22,746 kbps     37,439 kbps     00:54:30.183    33,236 kbps     00:54:27.389    31,992 kbps     00:54:41.194    118,587 bytes   301,709 bytes   00:56:09.282   
9               1:03:27.094     0:09:15.930     23,685 kbps     41,129 kbps     01:07:28.377    35,475 kbps     01:07:25.124    33,128 kbps     01:07:25.166    123,480 bytes   324,206 bytes   01:05:34.597   
10              1:12:43.025     0:05:42.258     25,195 kbps     37,911 kbps     01:15:51.880    35,103 kbps     01:15:51.880    32,974 kbps     01:15:51.838    131,358 bytes   301,794 bytes   01:13:12.930   
11              1:18:25.283     0:08:24.921     28,436 kbps     38,016 kbps     01:23:33.508    36,644 kbps     01:21:38.059    35,504 kbps     01:21:34.472    148,254 bytes   309,704 bytes   01:19:02.028   
12              1:26:50.205     0:03:55.235     10,826 kbps     29,426 kbps     01:27:05.053    26,932 kbps     01:27:35.959    26,145 kbps     01:26:50.622    56,463 bytes    283,111 bytes   01:27:17.273   
I work away a lot but I will reply to all PM's within a few days so please have patience!
My 2015 viewing diary - http://www.letterboxd.com/samdvd1/films ... year/2015/
Goal for 2016: 730 films.
Samuel_Scott
Rewind Administrator
Rewind Administrator
 
Posts: 5689
Joined: 15 Oct 2002 19:19
Location: UK

Re: BD Info Scans

Postby Davy_Lee » 22 Jan 2015 03:40

DEAD OF NIGHT (1945) [Studio Canal BD]

Code: Select all
                                                                                                                Total   Video                                             
Title                                                           Codec   Length  Movie Size      Disc Size       Bitrate Bitrate Main Audio Track                          Secondary Audio Track
-----                                                           ------  ------- --------------  --------------  ------- ------- ------------------                        ---------------------
00000.MPLS                                                      AVC     1:43:46 26,358,073,344  43,332,982,221  33.86   29.98   LPCM 2.0 2304Kbps (48kHz/24-bit)         


Code: Select all

DISC INFO:

Disc Title:     DEAD_OF_NIGHT
Disc Size:      43,332,982,221 bytes
Protection:     AACS
BD-Java:        No
BDInfo:         0.5.8

PLAYLIST REPORT:

Name:                   00000.MPLS
Length:                 1:43:46.803 (h:m:s.ms)
Size:                   26,358,073,344 bytes
Total Bitrate:          33.86 Mbps

VIDEO:

Codec                   Bitrate             Description     
-----                   -------             -----------     
MPEG-4 AVC Video        29980 kbps          1080p / 23.976 fps / 16:9 / High Profile 4.1

AUDIO:

Codec                           Language        Bitrate         Description     
-----                           --------        -------         -----------     
LPCM Audio                      English         2304 kbps       2.0 / 48 kHz / 2304 kbps / 24-bit

SUBTITLES:

Codec                           Language        Bitrate         Description     
-----                           --------        -------         -----------     
Presentation Graphics           English         45.258 kbps                     

FILES:

Name            Time In         Length          Size            Total Bitrate   
----            -------         ------          ----            -------------   
00000.M2TS      0:00:00.000     1:43:46.803     26,358,073,344  33,864         

CHAPTERS:

Number          Time In         Length          Avg Video Rate  Max 1-Sec Rate  Max 1-Sec Time  Max 5-Sec Rate  Max 5-Sec Time  Max 10Sec Rate  Max 10Sec Time  Avg Frame Size  Max Frame Size  Max Frame Time 
------          -------         ------          --------------  --------------  --------------  --------------  --------------  --------------  --------------  --------------  --------------  -------------- 
1               0:00:00.000     0:09:40.746     29,711 kbps     56,939 kbps     00:02:30.733    37,716 kbps     00:02:30.567    34,627 kbps     00:02:30.567    154,889 bytes   532,484 bytes   00:02:31.150   
2               0:09:40.746     0:08:31.302     31,369 kbps     35,693 kbps     00:11:58.134    33,532 kbps     00:11:57.675    32,727 kbps     00:11:57.299    163,546 bytes   341,557 bytes   00:13:45.991   
3               0:18:12.049     0:08:05.067     31,275 kbps     35,985 kbps     00:21:01.593    33,531 kbps     00:19:11.733    32,607 kbps     00:19:09.898    163,055 bytes   336,069 bytes   00:21:01.468   
4               0:26:17.117     0:06:23.925     31,413 kbps     35,674 kbps     00:27:45.288    33,755 kbps     00:28:06.851    32,829 kbps     00:27:36.071    163,772 bytes   319,441 bytes   00:27:45.997   
5               0:32:41.042     0:10:42.433     31,545 kbps     40,283 kbps     00:35:46.227    34,106 kbps     00:35:46.227    33,318 kbps     00:38:20.631    164,461 bytes   354,934 bytes   00:35:46.561   
6               0:43:23.475     0:09:00.915     30,318 kbps     43,514 kbps     00:49:08.820    40,583 kbps     00:49:07.736    36,898 kbps     00:49:07.653    158,063 bytes   353,395 bytes   00:43:33.485   
7               0:52:24.391     0:06:52.495     31,398 kbps     35,859 kbps     00:58:21.748    33,964 kbps     00:59:10.380    33,355 kbps     00:59:05.208    163,692 bytes   317,913 bytes   00:58:22.040   
8               0:59:16.886     0:07:44.422     30,753 kbps     36,328 kbps     00:59:18.137    33,604 kbps     00:59:52.297    32,882 kbps     01:02:02.510    160,332 bytes   325,517 bytes   01:05:06.402   
9               1:07:01.308     0:10:22.079     31,242 kbps     36,870 kbps     01:07:01.767    34,681 kbps     01:12:14.455    32,730 kbps     01:09:38.924    162,884 bytes   355,617 bytes   01:14:16.910   
10              1:17:23.388     0:06:33.893     28,371 kbps     42,312 kbps     01:23:42.726    35,184 kbps     01:19:55.165    32,125 kbps     01:18:32.666    147,912 bytes   380,104 bytes   01:19:58.543   
11              1:23:57.282     0:10:18.367     25,183 kbps     44,886 kbps     01:24:20.013    40,228 kbps     01:24:19.929    35,959 kbps     01:24:19.929    131,294 bytes   436,113 bytes   01:24:19.971   
12              1:34:15.650     0:09:31.153     28,144 kbps     42,790 kbps     01:39:56.115    37,372 kbps     01:39:42.559    34,276 kbps     01:42:37.860    146,739 bytes   419,856 bytes   01:39:43.936   

STREAM DIAGNOSTICS:

File            PID             Type            Codec           Language                Seconds                 Bitrate                 Bytes           Packets         
----            ---             ----            -----           --------                --------------          --------------          -------------   -----           
00000.M2TS      4113 (0x1011)   0x1B            AVC                                     6226.721                29,981                  23,335,056,621  126,908,143     
00000.M2TS      4352 (0x1100)   0x80            LPCM            eng (English)           6226.721                2,310                   1,798,301,284   9,962,888       
00000.M2TS      4608 (0x1200)   0x90            PGS             eng (English)           6226.721                45                      35,226,235      202,005         



Documentary: Remembering Dead of Night

Code: Select all
                                                                                                                Total   Video                                             
Title                                                           Codec   Length  Movie Size      Disc Size       Bitrate Bitrate Main Audio Track                          Secondary Audio Track
-----                                                           ------  ------- --------------  --------------  ------- ------- ------------------                        ---------------------
00006.MPLS                                                      AVC     1:15:35 15,452,491,776  43,332,982,221  27.25   23.69   LPCM 2.0 2304Kbps (48kHz/24-bit)         


Code: Select all

DISC INFO:

Disc Title:     DEAD_OF_NIGHT
Disc Size:      43,332,982,221 bytes
Protection:     AACS
BD-Java:        No
BDInfo:         0.5.8

PLAYLIST REPORT:

Name:                   00006.MPLS
Length:                 1:15:35.739 (h:m:s.ms)
Size:                   15,452,491,776 bytes
Total Bitrate:          27.25 Mbps

VIDEO:

Codec                   Bitrate             Description     
-----                   -------             -----------     
MPEG-4 AVC Video        23694 kbps          1080p / 23.976 fps / 16:9 / High Profile 4.1

AUDIO:

Codec                           Language        Bitrate         Description     
-----                           --------        -------         -----------     
LPCM Audio                      English         2304 kbps       2.0 / 48 kHz / 2304 kbps / 24-bit

FILES:

Name            Time In         Length          Size            Total Bitrate   
----            -------         ------          ----            -------------   
00009.M2TS      0:00:00.000     1:15:35.739     15,452,491,776  27,255         

CHAPTERS:

Number          Time In         Length          Avg Video Rate  Max 1-Sec Rate  Max 1-Sec Time  Max 5-Sec Rate  Max 5-Sec Time  Max 10Sec Rate  Max 10Sec Time  Avg Frame Size  Max Frame Size  Max Frame Time 
------          -------         ------          --------------  --------------  --------------  --------------  --------------  --------------  --------------  --------------  --------------  -------------- 
1               0:00:00.000     0:10:15.698     22,698 kbps     52,730 kbps     00:00:21.521    38,046 kbps     00:08:35.515    37,147 kbps     00:08:30.468    118,330 bytes   820,612 bytes   00:00:21.896   
2               0:10:15.698     0:09:28.651     24,006 kbps     50,361 kbps     00:11:40.199    38,892 kbps     00:15:53.369    36,970 kbps     00:15:53.452    125,157 bytes   782,742 bytes   00:11:40.825   
3               0:19:44.349     0:10:24.415     24,518 kbps     42,959 kbps     00:22:11.288    38,831 kbps     00:27:27.395    37,389 kbps     00:27:25.518    127,825 bytes   613,851 bytes   00:22:11.330   
4               0:30:08.765     0:10:30.046     23,843 kbps     48,405 kbps     00:33:29.757    40,491 kbps     00:31:31.014    35,486 kbps     00:31:31.014    124,308 bytes   493,935 bytes   00:31:35.059   
5               0:40:38.811     0:09:13.177     25,353 kbps     52,528 kbps     00:45:28.016    38,622 kbps     00:45:26.223    32,768 kbps     00:46:50.641    132,180 bytes   848,134 bytes   00:45:28.058   
6               0:49:51.989     0:10:16.157     24,226 kbps     42,767 kbps     00:52:05.080    40,491 kbps     00:52:02.953    36,321 kbps     00:50:32.487    126,304 bytes   575,297 bytes   00:52:05.997   
7               1:00:08.146     0:15:27.593     22,164 kbps     50,304 kbps     01:11:07.012    35,937 kbps     01:07:33.507    33,442 kbps     01:01:23.262    115,559 bytes   975,565 bytes   01:07:38.971   

STREAM DIAGNOSTICS:

File            PID             Type            Codec           Language                Seconds                 Bitrate                 Bytes           Packets         
----            ---             ----            -----           --------                --------------          --------------          -------------   -----           
00009.M2TS      4113 (0x1011)   0x1B            AVC                                     4535.573                23,695                  13,433,687,411  73,072,576     
00009.M2TS      4352 (0x1100)   0x80            LPCM            eng (English)           4535.573                2,310                   1,309,921,712   7,257,184       

*N=New to collection :-D, U=Upgrade from DVD :), DD=Double Dipping :wink:, R=Replacement for damaged disc :-?



“Knowledge, like air, is vital to life. Like air, no one should be denied it.”
User avatar
Davy_Lee
 
Posts: 1499
Joined: 19 Jan 2010 11:13

Re: BD Info Scans

Postby Samuel_Scott » 22 Jan 2015 14:33

Only Lovers Left Alive (2013) (Alive) (Germany)

Code: Select all
                                                                                                                Total   Video                                             
Title                                                           Codec   Length  Movie Size      Disc Size       Bitrate Bitrate Main Audio Track                          Secondary Audio Track
-----                                                           ------  ------- --------------  --------------  ------- ------- ------------------                        ---------------------
01003.MPLS                                                      AVC     1:58:01 17.332.254.720  22.934.611.038  19,58   17,01   DD AC3 2.0 192Kbps                        DD AC3 5.1 448Kbps


DISC INFO:

Disc Title:     Only Lovers Left Alive
Disc Size:      22.934.611.038 bytes
Protection:     AACS
BD-Java:        No
Extras:         50Hz Content
BDInfo:         0.5.8

PLAYLIST REPORT:

Name:                   01003.MPLS
Length:                 1:58:01.760 (h:m:s.ms)
Size:                   17.332.254.720 bytes
Total Bitrate:          19,58 Mbps

VIDEO:

Codec                   Bitrate             Description     
-----                   -------             -----------     
MPEG-4 AVC Video        17010 kbps          1080i / 25 fps / 16:9 / High Profile 4.1

AUDIO:

Codec                           Language        Bitrate         Description     
-----                           --------        -------         -----------     
Dolby Digital Audio             German          192 kbps        2.0 / 48 kHz / 192 kbps / DN -4dB
Dolby Digital Audio             German          448 kbps        5.1 / 48 kHz / 448 kbps / DN -4dB
Dolby Digital Audio             English         192 kbps        2.0 / 48 kHz / 192 kbps / DN -4dB
Dolby Digital Audio             English         448 kbps        5.1 / 48 kHz / 448 kbps / DN -4dB
Dolby Digital Audio             German          192 kbps        2.0 / 48 kHz / 192 kbps / DN -4dB

SUBTITLES:

Codec                           Language        Bitrate         Description     
-----                           --------        -------         -----------     
Presentation Graphics           German          32,693 kbps                     
Presentation Graphics           German          21,505 kbps                     

FILES:

Name            Time In         Length          Size            Total Bitrate   
----            -------         ------          ----            -------------   
00003.M2TS      0:00:00.000     1:58:01.760     17.332.254.720  19.580         

CHAPTERS:

Number          Time In         Length          Avg Video Rate  Max 1-Sec Rate  Max 1-Sec Time  Max 5-Sec Rate  Max 5-Sec Time  Max 10Sec Rate  Max 10Sec Time  Avg Frame Size  Max Frame Size  Max Frame Time 
------          -------         ------          --------------  --------------  --------------  --------------  --------------  --------------  --------------  --------------  --------------  -------------- 
1               0:00:00.000     0:10:26.840     16.877 kbps     31.225 kbps     00:01:35.479    29.366 kbps     00:01:33.479    28.785 kbps     00:01:30.360    84.380 bytes    486.583 bytes   00:01:29.160   
2               0:10:26.840     0:05:55.400     17.398 kbps     28.422 kbps     00:13:38.680    24.136 kbps     00:13:36.600    22.431 kbps     00:10:39.800    86.989 bytes    466.556 bytes   00:10:40.200   
3               0:16:22.240     0:10:06.839     15.622 kbps     31.347 kbps     00:26:20.880    23.000 kbps     00:26:20.720    22.304 kbps     00:25:51.560    78.117 bytes    516.287 bytes   00:23:13.080   
4               0:26:29.080     0:11:38.119     17.010 kbps     28.164 kbps     00:27:30.600    26.283 kbps     00:27:08.680    24.021 kbps     00:27:05.280    85.048 bytes    507.827 bytes   00:28:01.920   
5               0:38:07.200     0:09:16.320     17.733 kbps     27.158 kbps     00:46:03.760    22.189 kbps     00:46:03.640    20.993 kbps     00:45:48.280    88.666 bytes    421.076 bytes   00:46:03.960   
6               0:47:23.520     0:08:35.280     17.785 kbps     32.997 kbps     00:50:03.960    24.666 kbps     00:50:47.840    24.197 kbps     00:50:47.720    88.924 bytes    509.367 bytes   00:50:01.400   
7               0:55:58.800     0:11:43.719     18.657 kbps     31.313 kbps     00:57:48.440    25.452 kbps     01:00:36.600    23.719 kbps     00:59:23.000    93.284 bytes    458.950 bytes   01:00:19.720   
8               1:07:42.520     0:12:11.120     19.132 kbps     40.044 kbps     01:14:49.720    28.036 kbps     01:14:40.040    26.748 kbps     01:14:40.400    95.660 bytes    927.386 bytes   01:12:41.960   
9               1:19:53.640     0:09:59.279     17.752 kbps     32.981 kbps     01:26:35.760    24.321 kbps     01:27:30.840    23.349 kbps     01:26:07.320    88.760 bytes    610.688 bytes   01:26:35.800   
10              1:29:52.920     0:11:13.720     18.902 kbps     31.630 kbps     01:31:29.040    27.966 kbps     01:30:16.320    25.251 kbps     01:30:14.600    94.510 bytes    485.072 bytes   01:31:27.040   
11              1:41:06.640     0:10:35.359     17.638 kbps     28.277 kbps     01:51:34.080    22.249 kbps     01:47:15.360    21.980 kbps     01:47:16.080    88.189 bytes    488.359 bytes   01:41:07.520   
12              1:51:42.000     0:06:19.760     4.250 kbps      14.011 kbps     01:56:49.160    12.158 kbps     01:56:47.120    11.322 kbps     01:56:44.960    21.251 bytes    270.087 bytes   01:56:51.120   
I work away a lot but I will reply to all PM's within a few days so please have patience!
My 2015 viewing diary - http://www.letterboxd.com/samdvd1/films ... year/2015/
Goal for 2016: 730 films.
Samuel_Scott
Rewind Administrator
Rewind Administrator
 
Posts: 5689
Joined: 15 Oct 2002 19:19
Location: UK

Re: BD Info Scans

Postby Jim_Mcdonaugh » 23 Jan 2015 13:18

I find them pretty interesting.


Hah, really? :lol: Never thought of that! But I'll dump some of mine later just to make you happy. :-D
User avatar
Jim_Mcdonaugh
 
Posts: 475
Joined: 22 Jul 2011 08:04

Re: BD Info Scans

Postby Samuel_Scott » 23 Jan 2015 20:48

Boyhood (2014) (Universal) (UK)

Code: Select all
                                                                                                                Total   Video                                             
Title                                                           Codec   Length  Movie Size      Disc Size       Bitrate Bitrate Main Audio Track                          Secondary Audio Track
-----                                                           ------  ------- --------------  --------------  ------- ------- ------------------                        ---------------------
00800.MPLS                                                      AVC     2:45:38 42,040,037,376  42,956,826,805  33.84   25.00   DTS 5.1 768Kbps (48kHz/24-bit)           


Code: Select all

DISC INFO:

Disc Title:     BOYHOOD_G51
Disc Size:      42,956,826,805 bytes
Protection:     AACS
BD-Java:        Yes
BDInfo:         0.5.8

PLAYLIST REPORT:

Name:                   00800.MPLS
Length:                 2:45:38.345 (h:m:s.ms)
Size:                   42,040,037,376 bytes
Total Bitrate:          33.84 Mbps

VIDEO:

Codec                   Bitrate             Description     
-----                   -------             -----------     
MPEG-4 AVC Video        24998 kbps          1080p / 23.976 fps / 16:9 / High Profile 4.1

AUDIO:

Codec                           Language        Bitrate         Description     
-----                           --------        -------         -----------     
DTS Audio                       Japanese        768 kbps        5.1 / 48 kHz / 768 kbps / 24-bit
DTS-HD Master Audio             English         3013 kbps       5.1 / 48 kHz / 3013 kbps / 24-bit (DTS Core: 5.1 / 48 kHz / 1509 kbps / 24-bit)
DTS Audio                       Italian         768 kbps        5.1 / 48 kHz / 768 kbps / 24-bit
DTS Audio                       German          768 kbps        5.1 / 48 kHz / 768 kbps / 24-bit
DTS Audio                       Spanish         768 kbps        5.1 / 48 kHz / 768 kbps / 24-bit
Dolby Digital Audio             English         192 kbps        2.0 / 48 kHz / 192 kbps / DN -4dB / Dolby Surround

SUBTITLES:

Codec                           Language        Bitrate         Description     
-----                           --------        -------         -----------     
Presentation Graphics           Japanese        29.716 kbps                     
Presentation Graphics           English         59.750 kbps                     
Presentation Graphics           Italian         44.634 kbps                     
Presentation Graphics           German          50.463 kbps                     
Presentation Graphics           Spanish         44.532 kbps                     
Presentation Graphics           Portuguese      45.358 kbps                     
Presentation Graphics           Danish          37.922 kbps                     
Presentation Graphics           Finnish         31.678 kbps                     
Presentation Graphics           Icelandic       49.469 kbps                     
Presentation Graphics           Norwegian       34.962 kbps                     
Presentation Graphics           Swedish         44.051 kbps                     
Presentation Graphics           Arabic          27.435 kbps                     
Presentation Graphics           Hindi           39.489 kbps                     
Presentation Graphics           Japanese        0.762 kbps                     
Presentation Graphics           Italian         1.293 kbps                     
Presentation Graphics           German          1.347 kbps                     
Presentation Graphics           Spanish         1.461 kbps                     

FILES:

Name            Time In         Length          Size            Total Bitrate   
----            -------         ------          ----            -------------   
00800.M2TS      0:00:00.000     2:45:38.345     42,040,037,376  33,841         

CHAPTERS:

Number          Time In         Length          Avg Video Rate  Max 1-Sec Rate  Max 1-Sec Time  Max 5-Sec Rate  Max 5-Sec Time  Max 10Sec Rate  Max 10Sec Time  Avg Frame Size  Max Frame Size  Max Frame Time 
------          -------         ------          --------------  --------------  --------------  --------------  --------------  --------------  --------------  --------------  --------------  -------------- 
1               0:00:00.000     0:08:52.949     23,314 kbps     34,944 kbps     00:02:48.418    33,209 kbps     00:02:44.414    32,963 kbps     00:02:45.456    121,540 bytes   478,197 bytes   00:02:49.419   
2               0:08:52.949     0:07:06.342     27,110 kbps     34,080 kbps     00:10:25.958    32,984 kbps     00:13:57.711    32,272 kbps     00:10:05.438    141,341 bytes   477,247 bytes   00:10:23.039   
3               0:15:59.291     0:09:02.625     24,114 kbps     33,710 kbps     00:17:10.779    31,390 kbps     00:22:11.204    30,321 kbps     00:22:45.822    125,720 bytes   374,972 bytes   00:22:11.455   
4               0:25:01.917     0:09:54.719     25,979 kbps     34,136 kbps     00:27:39.532    33,063 kbps     00:27:34.694    32,911 kbps     00:27:39.532    135,440 bytes   459,894 bytes   00:33:00.645   
5               0:34:56.636     0:09:50.715     24,655 kbps     33,776 kbps     00:40:59.373    32,747 kbps     00:41:09.008    32,221 kbps     00:41:20.853    128,542 bytes   406,487 bytes   00:38:21.382   
6               0:44:47.351     0:07:38.708     25,551 kbps     34,467 kbps     00:49:57.244    33,137 kbps     00:49:53.115    32,914 kbps     00:49:48.193    133,209 bytes   332,799 bytes   00:44:48.352   
7               0:52:26.059     0:07:05.049     25,007 kbps     33,999 kbps     00:56:10.825    33,001 kbps     00:57:20.770    31,840 kbps     00:52:51.293    130,373 bytes   434,799 bytes   00:57:18.309   
8               0:59:31.109     0:08:05.610     23,132 kbps     34,270 kbps     01:03:31.682    33,059 kbps     01:03:25.176    32,929 kbps     01:03:22.673    120,601 bytes   505,628 bytes   01:01:35.900   
9               1:07:36.719     0:04:48.830     26,276 kbps     34,682 kbps     01:09:24.869    33,146 kbps     01:12:12.119    32,982 kbps     01:12:07.114    136,990 bytes   513,952 bytes   01:10:52.706   
10              1:12:25.549     0:10:30.004     25,520 kbps     34,080 kbps     01:16:19.992    33,049 kbps     01:16:16.029    32,930 kbps     01:16:48.478    133,048 bytes   327,504 bytes   01:15:42.913   
11              1:22:55.553     0:08:30.218     25,096 kbps     32,546 kbps     01:30:36.597    31,447 kbps     01:30:33.511    30,309 kbps     01:30:28.506    130,840 bytes   438,249 bytes   01:31:19.891   
12              1:31:25.771     0:10:34.884     25,276 kbps     34,817 kbps     01:35:58.335    32,963 kbps     01:32:15.947    32,038 kbps     01:32:11.734    131,776 bytes   429,317 bytes   01:36:09.096   
13              1:42:00.656     0:07:04.882     24,940 kbps     34,204 kbps     01:43:05.470    33,052 kbps     01:42:31.937    32,923 kbps     01:42:56.461    130,026 bytes   384,853 bytes   01:42:25.681   
14              1:49:05.539     0:05:13.229     25,517 kbps     34,196 kbps     01:49:11.628    32,922 kbps     01:49:15.757    32,341 kbps     01:49:09.501    133,031 bytes   357,182 bytes   01:49:12.587   
15              1:54:18.768     0:06:34.769     24,196 kbps     29,718 kbps     01:56:33.653    28,556 kbps     01:56:19.764    28,002 kbps     01:56:19.180    126,145 bytes   426,997 bytes   01:56:20.807   
16              2:00:53.537     0:10:18.034     24,631 kbps     33,000 kbps     02:03:37.326    31,692 kbps     02:03:34.740    30,700 kbps     02:03:34.740    128,413 bytes   345,592 bytes   02:09:13.370   
17              2:11:11.572     0:11:54.839     25,375 kbps     34,202 kbps     02:17:16.645    33,031 kbps     02:15:28.995    31,480 kbps     02:15:07.265    132,291 bytes   448,875 bytes   02:14:55.796   
18              2:23:06.411     0:07:38.583     24,906 kbps     32,170 kbps     02:27:51.737    30,816 kbps     02:27:51.779    30,249 kbps     02:27:51.195    129,849 bytes   313,611 bytes   02:27:32.218   
19              2:30:44.994     0:09:13.803     28,065 kbps     34,888 kbps     02:34:43.274    33,148 kbps     02:34:17.081    32,918 kbps     02:36:07.608    146,316 bytes   422,044 bytes   02:34:53.075   
20              2:39:58.797     0:05:39.547     19,995 kbps     24,957 kbps     02:45:35.717    21,092 kbps     02:45:31.713    20,585 kbps     02:45:26.708    104,257 bytes   341,059 bytes   02:43:46.024 

I work away a lot but I will reply to all PM's within a few days so please have patience!
My 2015 viewing diary - http://www.letterboxd.com/samdvd1/films ... year/2015/
Goal for 2016: 730 films.
Samuel_Scott
Rewind Administrator
Rewind Administrator
 
Posts: 5689
Joined: 15 Oct 2002 19:19
Location: UK

Re: BD Info Scans

Postby Samuel_Scott » 25 Jan 2015 11:55

Lucy (2014) (Universal) (USA)

Code: Select all
                                                                                                                Total   Video                                             
Title                                                           Codec   Length  Movie Size      Disc Size       Bitrate Bitrate Main Audio Track                          Secondary Audio Track
-----                                                           ------  ------- --------------  --------------  ------- ------- ------------------                        ---------------------
00800.MPLS                                                      AVC     1:29:27 27,171,016,704  35,521,477,550  40.50   32.26   DTS-HD Master 5.1 4282Kbps (48kHz/24-bit)


Code: Select all

DISC INFO:

Disc Title:     LUCY_NA
Disc Size:      35,521,477,550 bytes
Protection:     AACS
BD-Java:        Yes
BDInfo:         0.5.8

PLAYLIST REPORT:

Name:                   00800.MPLS
Length:                 1:29:27.362 (h:m:s.ms)
Size:                   27,171,016,704 bytes
Total Bitrate:          40.50 Mbps

VIDEO:

Codec                   Bitrate             Description     
-----                   -------             -----------     
MPEG-4 AVC Video        32261 kbps          1080p / 23.976 fps / 16:9 / High Profile 4.1

AUDIO:

Codec                           Language        Bitrate         Description     
-----                           --------        -------         -----------     
DTS-HD Master Audio             English         4282 kbps       5.1 / 48 kHz / 4282 kbps / 24-bit (DTS Core: 5.1 / 48 kHz / 1509 kbps / 24-bit)
DTS Audio                       Spanish         768 kbps        5.1 / 48 kHz / 768 kbps / 24-bit
DTS Audio                       French          768 kbps        5.1 / 48 kHz / 768 kbps / 24-bit
Dolby Digital Audio             English         192 kbps        2.0 / 48 kHz / 192 kbps / DN -4dB / Dolby Surround

SUBTITLES:

Codec                           Language        Bitrate         Description     
-----                           --------        -------         -----------     
Presentation Graphics           English         28.694 kbps                     
Presentation Graphics           Spanish         22.559 kbps                     
Presentation Graphics           French          23.723 kbps                     
Presentation Graphics           Spanish         1.497 kbps                     
Presentation Graphics           French          0.937 kbps                     

FILES:

Name            Time In         Length          Size            Total Bitrate   
----            -------         ------          ----            -------------   
00800.M2TS      0:00:00.000     1:29:27.362     27,171,016,704  40,498         

CHAPTERS:

Number          Time In         Length          Avg Video Rate  Max 1-Sec Rate  Max 1-Sec Time  Max 5-Sec Rate  Max 5-Sec Time  Max 10Sec Rate  Max 10Sec Time  Avg Frame Size  Max Frame Size  Max Frame Time 
------          -------         ------          --------------  --------------  --------------  --------------  --------------  --------------  --------------  --------------  --------------  -------------- 
1               0:00:00.000     0:05:26.367     33,738 kbps     51,593 kbps     00:01:20.038    38,119 kbps     00:01:16.034    36,141 kbps     00:00:12.554    175,873 bytes   618,085 bytes   00:01:10.612   
2               0:05:26.367     0:03:11.900     32,262 kbps     38,555 kbps     00:07:00.420    35,005 kbps     00:07:13.224    34,660 kbps     00:08:04.317    168,200 bytes   365,181 bytes   00:06:05.406   
3               0:08:38.267     0:07:07.635     31,498 kbps     35,939 kbps     00:09:36.534    34,891 kbps     00:09:17.932    34,411 kbps     00:09:12.927    164,216 bytes   434,549 bytes   00:13:07.369   
4               0:15:45.903     0:05:50.391     31,251 kbps     37,426 kbps     00:15:56.997    35,496 kbps     00:17:08.152    35,057 kbps     00:17:03.230    162,929 bytes   609,110 bytes   00:17:13.115   
5               0:21:36.295     0:04:29.102     33,569 kbps     40,915 kbps     00:23:34.246    36,062 kbps     00:21:38.338    35,379 kbps     00:23:25.237    175,014 bytes   558,551 bytes   00:22:29.097   
6               0:26:05.397     0:04:22.136     32,158 kbps     36,843 kbps     00:29:44.032    35,182 kbps     00:28:12.023    34,975 kbps     00:28:11.439    167,656 bytes   476,071 bytes   00:26:09.276   
7               0:30:27.534     0:07:08.719     32,505 kbps     38,369 kbps     00:31:51.993    35,409 kbps     00:31:08.950    35,102 kbps     00:31:43.026    169,468 bytes   475,974 bytes   00:31:37.604   
8               0:37:36.254     0:04:07.205     33,564 kbps     38,749 kbps     00:40:57.538    35,629 kbps     00:40:53.534    35,135 kbps     00:40:48.529    174,988 bytes   490,345 bytes   00:38:08.411   
9               0:41:43.459     0:05:49.098     34,570 kbps     42,945 kbps     00:47:26.468    36,422 kbps     00:47:22.464    35,612 kbps     00:47:17.459    180,234 bytes   555,622 bytes   00:47:27.469   
10              0:47:32.558     0:02:38.157     33,142 kbps     37,014 kbps     00:48:03.630    35,045 kbps     00:48:25.193    34,902 kbps     00:48:50.010    172,786 bytes   640,523 bytes   00:49:17.913   
11              0:50:10.716     0:05:21.779     33,349 kbps     39,509 kbps     00:50:11.133    35,377 kbps     00:52:36.319    35,073 kbps     00:52:31.314    173,867 bytes   485,026 bytes   00:52:12.379   
12              0:55:32.495     0:04:03.576     33,477 kbps     37,281 kbps     00:57:15.223    35,302 kbps     00:58:40.725    34,956 kbps     00:55:48.678    174,532 bytes   582,475 bytes   00:58:46.731   
13              0:59:36.072     0:02:32.026     32,924 kbps     47,260 kbps     01:02:03.386    37,248 kbps     01:01:59.382    35,601 kbps     01:01:54.419    171,651 bytes   509,856 bytes   01:02:04.011   
14              1:02:08.099     0:02:43.246     33,625 kbps     37,112 kbps     01:02:47.847    35,218 kbps     01:02:43.926    34,964 kbps     01:04:00.378    175,304 bytes   459,743 bytes   01:02:51.517   
15              1:04:51.345     0:02:22.684     33,019 kbps     36,273 kbps     01:06:30.361    35,056 kbps     01:06:12.385    34,917 kbps     01:06:07.380    172,148 bytes   426,713 bytes   01:07:14.030   
16              1:07:14.030     0:02:41.786     30,781 kbps     36,285 kbps     01:07:20.244    34,940 kbps     01:07:19.243    34,902 kbps     01:07:14.613    160,480 bytes   467,055 bytes   01:07:57.156   
17              1:09:55.816     0:02:30.316     31,083 kbps     36,065 kbps     01:11:37.001    34,648 kbps     01:10:45.157    33,706 kbps     01:12:01.942    162,053 bytes   395,816 bytes   01:11:33.831   
18              1:12:26.133     0:06:24.467     31,799 kbps     39,622 kbps     01:18:32.833    35,656 kbps     01:18:22.739    35,155 kbps     01:18:40.465    165,787 bytes   511,075 bytes   01:17:19.134   
19              1:18:50.600     0:03:40.970     32,630 kbps     48,632 kbps     01:20:35.705    37,227 kbps     01:20:31.785    36,032 kbps     01:20:26.696    170,119 bytes   559,597 bytes   01:19:54.664   
20              1:22:31.571     0:06:55.790     27,298 kbps     39,162 kbps     01:29:20.563    35,145 kbps     01:29:19.979    34,396 kbps     01:28:38.771    142,332 bytes   640,135 bytes   01:29:24.984   
I work away a lot but I will reply to all PM's within a few days so please have patience!
My 2015 viewing diary - http://www.letterboxd.com/samdvd1/films ... year/2015/
Goal for 2016: 730 films.
Samuel_Scott
Rewind Administrator
Rewind Administrator
 
Posts: 5689
Joined: 15 Oct 2002 19:19
Location: UK

Re: BD Info Scans

Postby Davy_Lee » 06 Feb 2015 04:14

RAMBO TRILOGY: THE ULTIMATE EDITION (German BD Digipak)

FIRST BLOOD
Code: Select all
INFO:

Disc Title:     FIRST_BLOOD
Disc Size:      35.677.355.543 bytes
Protection:     AACS
BD-Java:        No
BDInfo:         0.5.6

PLAYLIST REPORT:

Name:                   00001.MPLS
Length:                 1:33:16 (h:m:s)
Size:                   0 bytes
Total Bitrate:          0,00 Mbps

VIDEO:

Codec                   Bitrate             Description     
-----                   -------             -----------     
MPEG-4 AVC Video        0 kbps              1080p / 23,976 fps / 16:9 / High Profile 4.1

AUDIO:

Codec                           Language        Bitrate         Description     
-----                           --------        -------         -----------     
DTS-HD Master Audio             English         0 kbps          5.1 / 48 kHz / 16-bit (DTS Core: 5.1 / 48 kHz / 1509 kbps / 16-bit)
DTS-HD Master Audio             French          0 kbps          5.1 / 48 kHz / 16-bit (DTS Core: 5.1 / 48 kHz / 1509 kbps / 16-bit)
DTS-HD Master Audio             German          0 kbps          5.1 / 48 kHz / 16-bit (DTS Core: 5.1 / 48 kHz / 1509 kbps / 16-bit)
DTS-HD Master Audio             German          0 kbps          2.0 / 48 kHz / 16-bit (DTS Core: 2.0 / 48 kHz / 768 kbps / 16-bit)
DTS-HD Master Audio             Spanish         0 kbps          2.0 / 48 kHz / 16-bit (DTS Core: 2.0 / 48 kHz / 768 kbps / 16-bit)
DTS-HD Master Audio             Spanish         0 kbps          2.0 / 48 kHz / 16-bit (DTS Core: 2.0 / 48 kHz / 768 kbps / 16-bit)
DTS Audio                       English         768 kbps        2.0 / 48 kHz / 768 kbps / 16-bit
DTS Audio                       English         768 kbps        2.0 / 48 kHz / 768 kbps / 16-bit
DTS Audio                       English         768 kbps        2.0 / 48 kHz / 768 kbps / 16-bit
DTS Audio                       French          768 kbps        2.0 / 48 kHz / 768 kbps / 16-bit
DTS Audio                       Italian         768 kbps        2.0 / 48 kHz / 768 kbps / 16-bit
DTS Audio                       Russian         768 kbps        2.0 / 48 kHz / 768 kbps / 16-bit

SUBTITLES:

Codec                           Language        Bitrate         Description     
-----                           --------        -------         -----------     
Presentation Graphics           English         0,000 kbps                     
Presentation Graphics           Danish          0,000 kbps                     
Presentation Graphics           Dutch           0,000 kbps                     
Presentation Graphics           Dutch           0,000 kbps                     
Presentation Graphics           Dutch           0,000 kbps                     
Presentation Graphics           Finnish         0,000 kbps                     
Presentation Graphics           French          0,000 kbps                     
Presentation Graphics           French          0,000 kbps                     
Presentation Graphics           French          0,000 kbps                     
Presentation Graphics           German          0,000 kbps                     
Presentation Graphics           German          0,000 kbps                     
Presentation Graphics           German          0,000 kbps                     
Presentation Graphics           Italian         0,000 kbps                     
Presentation Graphics           Italian         0,000 kbps                     
Presentation Graphics           Italian         0,000 kbps                     
Presentation Graphics           Norwegian       0,000 kbps                     
Presentation Graphics           Russian         0,000 kbps                     
Presentation Graphics           Russian         0,000 kbps                     
Presentation Graphics           Russian         0,000 kbps                     
Presentation Graphics           Spanish         0,000 kbps                     
Presentation Graphics           Spanish         0,000 kbps                     
Presentation Graphics           Spanish         0,000 kbps                     
Presentation Graphics           Spanish         0,000 kbps                     
Presentation Graphics           Spanish         0,000 kbps                     
Presentation Graphics           Spanish         0,000 kbps                     
Presentation Graphics           Swedish         0,000 kbps                     
Presentation Graphics           Turkish         0,000 kbps


RAMBO - FIRST BLOOD PART II
Code: Select all
DISC INFO:

Disc Title:     RAMBO_FIRST_BLOOD_II
Disc Size:      31.819.164.229 bytes
Protection:     AACS
BD-Java:        No
BDInfo:         0.5.6

PLAYLIST REPORT:

Name:                   00001.MPLS
Length:                 1:36:00 (h:m:s)
Size:                   0 bytes
Total Bitrate:          0,00 Mbps

VIDEO:

Codec                   Bitrate             Description     
-----                   -------             -----------     
MPEG-4 AVC Video        0 kbps              1080p / 23,976 fps / 16:9 / High Profile 4.1

AUDIO:

Codec                           Language        Bitrate         Description     
-----                           --------        -------         -----------     
DTS-HD Master Audio             English         0 kbps          5.1 / 48 kHz / 16-bit (DTS Core: 5.1 / 48 kHz / 1509 kbps / 16-bit)
DTS-HD Master Audio             French          0 kbps          5.1 / 48 kHz / 16-bit (DTS Core: 5.1 / 48 kHz / 1509 kbps / 16-bit)
DTS-HD Master Audio             German          0 kbps          5.1 / 48 kHz / 16-bit (DTS Core: 5.1 / 48 kHz / 1509 kbps / 16-bit)
DTS-HD Master Audio             Spanish         0 kbps          2.0 / 48 kHz / 16-bit (DTS Core: 2.0 / 48 kHz / 768 kbps / 16-bit)
DTS Audio                       English         768 kbps        2.0 / 48 kHz / 768 kbps / 16-bit
DTS Audio                       English         768 kbps        2.0 / 48 kHz / 768 kbps / 16-bit
DTS Audio                       French          768 kbps        2.0 / 48 kHz / 768 kbps / 16-bit
DTS Audio                       German          768 kbps        2.0 / 48 kHz / 768 kbps / 16-bit
DTS Audio                       Italian         768 kbps        2.0 / 48 kHz / 768 kbps / 16-bit
DTS Audio                       Russian         768 kbps        2.0 / 48 kHz / 768 kbps / 16-bit
DTS Audio                       Spanish         768 kbps        2.0 / 48 kHz / 768 kbps / 16-bit

SUBTITLES:

Codec                           Language        Bitrate         Description     
-----                           --------        -------         -----------     
Presentation Graphics           English         0,000 kbps                     
Presentation Graphics           Danish          0,000 kbps                     
Presentation Graphics           Dutch           0,000 kbps                     
Presentation Graphics           Dutch           0,000 kbps                     
Presentation Graphics           Finnish         0,000 kbps                     
Presentation Graphics           French          0,000 kbps                     
Presentation Graphics           French          0,000 kbps                     
Presentation Graphics           German          0,000 kbps                     
Presentation Graphics           German          0,000 kbps                     
Presentation Graphics           Italian         0,000 kbps                     
Presentation Graphics           Italian         0,000 kbps                     
Presentation Graphics           Norwegian       0,000 kbps                     
Presentation Graphics           Russian         0,000 kbps                     
Presentation Graphics           Russian         0,000 kbps                     
Presentation Graphics           Spanish         0,000 kbps                     
Presentation Graphics           Spanish         0,000 kbps                     
Presentation Graphics           Spanish         0,000 kbps                     
Presentation Graphics           Spanish         0,000 kbps                     
Presentation Graphics           Swedish         0,000 kbps                     
Presentation Graphics           Turkish         0,000 kbps


RAMBO III
Code: Select all
DISC INFO:

Disc Title:     RAMBO_III
Disc Size:      38.686.298.337 bytes
Protection:     AACS
BD-Java:        No
BDInfo:         0.5.6

PLAYLIST REPORT:

Name:                   00001.MPLS
Length:                 1:41:44 (h:m:s)
Size:                   0 bytes
Total Bitrate:          0,00 Mbps

VIDEO:

Codec                   Bitrate             Description     
-----                   -------             -----------     
MPEG-4 AVC Video        0 kbps              1080p / 23,976 fps / 16:9 / High Profile 4.1

AUDIO:

Codec                           Language        Bitrate         Description     
-----                           --------        -------         -----------     
DTS-HD Master Audio             English         0 kbps          5.1 / 48 kHz / 16-bit (DTS Core: 5.1 / 48 kHz / 1509 kbps / 16-bit)
DTS-HD Master Audio             French          0 kbps          5.1 / 48 kHz / 16-bit (DTS Core: 5.1 / 48 kHz / 1509 kbps / 16-bit)
DTS-HD Master Audio             German          0 kbps          5.1 / 48 kHz / 16-bit (DTS Core: 5.1 / 48 kHz / 1509 kbps / 16-bit)
DTS-HD Master Audio             Russian         0 kbps          2.0 / 48 kHz / 16-bit (DTS Core: 2.0 / 48 kHz / 768 kbps / 16-bit)
DTS-HD Master Audio             Spanish         0 kbps          2.0 / 48 kHz / 16-bit (DTS Core: 2.0 / 48 kHz / 768 kbps / 16-bit)
DTS Audio                       English         768 kbps        2.0 / 48 kHz / 768 kbps / 16-bit
DTS Audio                       English         768 kbps        2.0 / 48 kHz / 768 kbps / 16-bit
DTS Audio                       French          768 kbps        2.0 / 48 kHz / 768 kbps / 16-bit
DTS Audio                       German          768 kbps        2.0 / 48 kHz / 768 kbps / 16-bit
DTS Audio                       Italian         768 kbps        2.0 / 48 kHz / 768 kbps / 16-bit
DTS Audio                       Spanish         768 kbps        2.0 / 48 kHz / 768 kbps / 16-bit

SUBTITLES:

Codec                           Language        Bitrate         Description     
-----                           --------        -------         -----------     
Presentation Graphics           English         0,000 kbps                     
Presentation Graphics           Danish          0,000 kbps                     
Presentation Graphics           Danish          0,000 kbps                     
Presentation Graphics           Dutch           0,000 kbps                     
Presentation Graphics           Dutch           0,000 kbps                     
Presentation Graphics           Dutch           0,000 kbps                     
Presentation Graphics           Finnish         0,000 kbps                     
Presentation Graphics           Finnish         0,000 kbps                     
Presentation Graphics           French          0,000 kbps                     
Presentation Graphics           French          0,000 kbps                     
Presentation Graphics           French          0,000 kbps                     
Presentation Graphics           German          0,000 kbps                     
Presentation Graphics           German          0,000 kbps                     
Presentation Graphics           German          0,000 kbps                     
Presentation Graphics           Italian         0,000 kbps                     
Presentation Graphics           Italian         0,000 kbps                     
Presentation Graphics           Italian         0,000 kbps                     
Presentation Graphics           Norwegian       0,000 kbps                     
Presentation Graphics           Norwegian       0,000 kbps                     
Presentation Graphics           Russian         0,000 kbps                     
Presentation Graphics           Russian         0,000 kbps                     
Presentation Graphics           Russian         0,000 kbps                     
Presentation Graphics           Spanish         0,000 kbps                     
Presentation Graphics           Spanish         0,000 kbps                     
Presentation Graphics           Spanish         0,000 kbps                     
Presentation Graphics           Spanish         0,000 kbps                     
Presentation Graphics           Spanish         0,000 kbps                     
Presentation Graphics           Spanish         0,000 kbps                     
Presentation Graphics           Swedish         0,000 kbps                     
Presentation Graphics           Swedish         0,000 kbps                     
Presentation Graphics           Turkish         0,000 kbps
*N=New to collection :-D, U=Upgrade from DVD :), DD=Double Dipping :wink:, R=Replacement for damaged disc :-?



“Knowledge, like air, is vital to life. Like air, no one should be denied it.”
User avatar
Davy_Lee
 
Posts: 1499
Joined: 19 Jan 2010 11:13

Re: BD Info Scans

Postby Davy_Lee » 06 Feb 2015 04:20

EXTREME PREJUDICE (Japanese BD)

Code: Select all
                                                                                                                Total   Video                                             
Title                                                           Codec   Length  Movie Size      Disc Size       Bitrate Bitrate Main Audio Track                          Secondary Audio Track
-----                                                           ------  ------- --------------  --------------  ------- ------- ------------------                        ---------------------
00003.MPLS                                                      AVC     1:45:02 23*415*730*176  23*862*127*358  29,72   23,99   Dolby TrueHD 2.0 1432Kbps (48kHz/24-bit)


Code: Select all
DISC INFO:

Disc Title:     EXTREME_PREJUDICE
Disc Size:      23*862*127*358 bytes
Protection:     AACS
BD-Java:        No
BDInfo:         0.5.8

PLAYLIST REPORT:

Name:                   00003.MPLS
Length:                 1:45:02.296 (h:m:s.ms)
Size:                   23*415*730*176 bytes
Total Bitrate:          29,72 Mbps

VIDEO:

Codec                   Bitrate             Description     
-----                   -------             -----------     
MPEG-4 AVC Video        23990 kbps          1080p / 23,976 fps / 16:9 / High Profile 4.1

AUDIO:

Codec                           Language        Bitrate         Description     
-----                           --------        -------         -----------     
Dolby TrueHD Audio              English         1432 kbps       2.0 / 48 kHz / 1432 kbps / 24-bit (AC3 Embedded: 2.0 / 48 kHz / 192 kbps)
Dolby TrueHD Audio              Japanese        837 kbps        2.0 / 48 kHz / 837 kbps / 16-bit (AC3 Embedded: 2.0 / 48 kHz / 192 kbps)

SUBTITLES:

Codec                           Language        Bitrate         Description     
-----                           --------        -------         -----------     
Presentation Graphics           Japanese        156,873 kbps                   
Presentation Graphics           Japanese        6,163 kbps                     

FILES:

Name            Time In         Length          Size            Total Bitrate   
----            -------         ------          ----            -------------   
00001.M2TS      0:00:00.000     1:45:02.296     23*415*730*176  29*723         

CHAPTERS:

Number          Time In         Length          Avg Video Rate  Max 1-Sec Rate  Max 1-Sec Time  Max 5-Sec Rate  Max 5-Sec Time  Max 10Sec Rate  Max 10Sec Time  Avg Frame Size  Max Frame Size  Max Frame Time 
------          -------         ------          --------------  --------------  --------------  --------------  --------------  --------------  --------------  --------------  --------------  -------------- 
1               0:00:00.000     0:06:16.751     22*054 kbps     34*411 kbps     00:01:06.608    33*544 kbps     00:01:06.608    32*342 kbps     00:01:06.608    114*968 bytes   283*097 bytes   00:00:42.000   
2               0:06:16.751     0:04:02.325     26*743 kbps     31*852 kbps     00:06:39.690    30*704 kbps     00:07:03.714    30*513 kbps     00:06:58.709    139*424 bytes   210*155 bytes   00:10:19.076   
3               0:10:19.076     0:03:29.042     24*976 kbps     35*639 kbps     00:12:40.092    34*828 kbps     00:12:40.092    32*585 kbps     00:12:38.340    130*212 bytes   242*280 bytes   00:13:11.624   
4               0:13:48.118     0:02:48.376     25*387 kbps     35*206 kbps     00:16:34.576    30*893 kbps     00:14:42.548    30*451 kbps     00:14:39.336    132*355 bytes   227*299 bytes   00:15:50.115   
5               0:16:36.495     0:05:45.511     23*270 kbps     30*180 kbps     00:18:37.115    27*431 kbps     00:18:33.779    26*321 kbps     00:18:28.774    121*318 bytes   287*773 bytes   00:21:45.721   
6               0:22:22.007     0:02:52.255     25*235 kbps     32*633 kbps     00:24:12.325    32*278 kbps     00:24:10.740    31*268 kbps     00:24:09.823    131*561 bytes   234*242 bytes   00:24:21.126   
7               0:25:14.262     0:05:28.703     25*138 kbps     30*928 kbps     00:26:22.205    30*276 kbps     00:26:19.869    30*070 kbps     00:26:13.947    131*058 bytes   271*296 bytes   00:30:42.966   
8               0:30:42.966     0:06:14.540     25*966 kbps     35*719 kbps     00:35:26.916    30*852 kbps     00:31:55.872    29*214 kbps     00:36:16.257    135*376 bytes   301*424 bytes   00:35:26.082   
9               0:36:57.506     0:02:30.358     24*852 kbps     28*969 kbps     00:37:21.822    27*563 kbps     00:37:30.790    26*916 kbps     00:37:00.384    129*569 bytes   300*169 bytes   00:37:15.816   
10              0:39:27.865     0:05:30.830     24*367 kbps     30*198 kbps     00:41:23.272    29*367 kbps     00:41:12.595    29*056 kbps     00:41:14.305    127*038 bytes   191*929 bytes   00:39:36.832   
11              0:44:58.696     0:04:07.455     24*770 kbps     30*520 kbps     00:48:24.318    29*089 kbps     00:48:23.358    28*189 kbps     00:47:24.508    129*141 bytes   241*863 bytes   00:48:23.400   
12              0:49:06.151     0:01:46.105     24*224 kbps     27*882 kbps     00:49:26.672    26*888 kbps     00:49:25.462    26*459 kbps     00:49:19.414    126*294 bytes   199*921 bytes   00:50:40.203   
13              0:50:52.257     0:11:36.404     26*521 kbps     36*329 kbps     01:00:21.784    31*970 kbps     00:58:31.966    30*925 kbps     00:57:35.326    138*270 bytes   263*334 bytes   00:54:06.952   
14              1:02:28.661     0:05:04.429     25*688 kbps     29*400 kbps     01:02:35.376    28*292 kbps     01:04:43.504    28*087 kbps     01:03:07.950    133*927 bytes   270*771 bytes   01:04:56.475   
15              1:07:33.090     0:03:12.984     24*954 kbps     40*645 kbps     01:08:18.928    36*612 kbps     01:08:15.716    31*222 kbps     01:08:10.836    130*099 bytes   347*776 bytes   01:08:19.887   
16              1:10:46.075     0:05:37.587     24*922 kbps     29*245 kbps     01:13:30.948    27*973 kbps     01:13:35.994    26*683 kbps     01:11:56.854    129*932 bytes   265*252 bytes   01:11:46.719   
17              1:16:23.662     0:04:57.588     22*772 kbps     29*910 kbps     01:17:31.813    28*774 kbps     01:17:10.208    28*332 kbps     01:17:10.083    118*723 bytes   243*857 bytes   01:17:37.861   
18              1:21:21.251     0:04:04.661     22*376 kbps     28*225 kbps     01:24:18.762    26*890 kbps     01:21:26.840    24*787 kbps     01:21:37.851    116*660 bytes   183*352 bytes   01:24:23.433   
19              1:25:25.912     0:05:21.070     23*293 kbps     28*799 kbps     01:30:34.971    27*837 kbps     01:30:33.678    27*390 kbps     01:30:29.465    121*440 bytes   189*156 bytes   01:29:34.160   
20              1:30:46.983     0:06:27.136     22*735 kbps     29*709 kbps     01:34:33.793    26*797 kbps     01:35:28.889    26*285 kbps     01:35:28.013    118*531 bytes   252*998 bytes   01:34:33.834   
21              1:37:14.119     0:07:46.174     17*089 kbps     26*281 kbps     01:40:47.291    25*771 kbps     01:40:51.503    25*708 kbps     01:40:45.330    89*094 bytes    257*125 bytes   01:42:10.040   
22              1:45:00.294     0:00:02.002     8*087 kbps      8*737 kbps      01:45:01.169    0 kbps          00:00:00.000    0 kbps          00:00:00.000    43*057 bytes    85*528 bytes    01:45:00.335   

STREAM DIAGNOSTICS:

File            PID             Type            Codec           Language                Seconds                 Bitrate                 Bytes           Packets         
----            ---             ----            -----           --------                --------------          --------------          -------------   -----           
00001.M2TS      4113 (0x1011)   0x1B            AVC                                     6302,129                23*991                  18*898*917*139  102*799*711     
00001.M2TS      4352 (0x1100)   0x83            TrueHD          eng (English)           6302,129                1*624                   1*279*273*662   9*663*314       
00001.M2TS      4353 (0x1101)   0x83            TrueHD          jpn (Japanese)          6302,129                1*029                   810*760*602     8*557*590       
00001.M2TS      4608 (0x1200)   0x90            PGS             jpn (Japanese)          6302,129                157                     123*582*764     697*759         
00001.M2TS      4609 (0x1201)   0x90            PGS             jpn (Japanese)          6302,129                6                       4*854*971       27*424
*N=New to collection :-D, U=Upgrade from DVD :), DD=Double Dipping :wink:, R=Replacement for damaged disc :-?



“Knowledge, like air, is vital to life. Like air, no one should be denied it.”
User avatar
Davy_Lee
 
Posts: 1499
Joined: 19 Jan 2010 11:13

Re: BD Info Scans

Postby Davy_Lee » 13 Mar 2015 06:11

DEEP STAR SIX (TC Entertainment Japan)

Code: Select all
DISC INFO:

Disc Title:     TCBD_0379
Disc Size:      24*704*965*052 bytes
Protection:     AACS
BD-Java:        No
BDInfo:         0.5.8

PLAYLIST REPORT:

Name:                   00002.MPLS
Length:                 1:39:33.801 (h:m:s.ms)
Size:                   24*001*247*232 bytes
Total Bitrate:          32,14 Mbps

VIDEO:

Codec                   Bitrate             Description     
-----                   -------             -----------     
MPEG-4 AVC Video        26998 kbps          1080p / 23,976 fps / 16:9 / High Profile 4.1

AUDIO:

Codec                           Language        Bitrate         Description     
-----                           --------        -------         -----------     
DTS-HD Master Audio             English         1676 kbps       2.0 / 48 kHz / 1676 kbps / 16-bit (DTS Core: 2.0 / 48 kHz / 1509 kbps / 16-bit)
DTS-HD Master Audio             Japanese        1567 kbps       2.0 / 48 kHz / 1567 kbps / 16-bit (DTS Core: 2.0 / 48 kHz / 1509 kbps / 16-bit)

SUBTITLES:

Codec                           Language        Bitrate         Description     
-----                           --------        -------         -----------     
Presentation Graphics           Japanese        18,312 kbps                     
Presentation Graphics           Japanese        0,766 kbps
*N=New to collection :-D, U=Upgrade from DVD :), DD=Double Dipping :wink:, R=Replacement for damaged disc :-?



“Knowledge, like air, is vital to life. Like air, no one should be denied it.”
User avatar
Davy_Lee
 
Posts: 1499
Joined: 19 Jan 2010 11:13

Re: BD Info Scans

Postby Davy_Lee » 15 Mar 2015 11:03

THE SILENT PARTNER (TC Entertainment Japan)

Code: Select all
DISC INFO:

Disc Title:     TCBD_0442
Disc Size:      24,938,925,540 bytes
Protection:     AACS
BD-Java:        No
BDInfo:         0.5.8

PLAYLIST REPORT:

Name:                   00002.MPLS
Length:                 1:45:39.332 (h:m:s.ms)
Size:                   24,493,971,456 bytes
Total Bitrate:          30.91 Mbps

VIDEO:

Codec                   Bitrate             Description     
-----                   -------             -----------     
MPEG-4 AVC Video        25995 kbps          1080p / 23.976 fps / 16:9 / High Profile 4.1

AUDIO:

Codec                           Language        Bitrate         Description     
-----                           --------        -------         -----------     
LPCM Audio                      English         1536 kbps       2.0 / 48 kHz / 1536 kbps / 16-bit
LPCM Audio                      Japanese        1536 kbps       2.0 / 48 kHz / 1536 kbps / 16-bit

SUBTITLES:

Codec                           Language        Bitrate         Description     
-----                           --------        -------         -----------     
Presentation Graphics           Japanese        16.478 kbps                     
Presentation Graphics           Japanese        1.830 kbps                     

FILES:

Name            Time In         Length          Size            Total Bitrate   
----            -------         ------          ----            -------------   
00003.M2TS      0:00:00.000     1:45:39.332     24,493,971,456  30,910         

CHAPTERS:

Number          Time In         Length          Avg Video Rate  Max 1-Sec Rate  Max 1-Sec Time  Max 5-Sec Rate  Max 5-Sec Time  Max 10Sec Rate  Max 10Sec Time  Avg Frame Size  Max Frame Size  Max Frame Time 
------          -------         ------          --------------  --------------  --------------  --------------  --------------  --------------  --------------  --------------  --------------  -------------- 
1               0:00:00.000     0:07:48.468     20,419 kbps     33,516 kbps     00:00:40.540    32,975 kbps     00:00:39.622    32,360 kbps     00:00:36.119    106,448 bytes   421,568 bytes   00:02:55.008   
2               0:07:48.468     0:13:15.794     27,662 kbps     36,630 kbps     00:13:12.583    34,897 kbps     00:13:08.579    33,738 kbps     00:13:05.576    144,216 bytes   430,534 bytes   00:17:17.786   
3               0:21:04.262     0:12:17.778     26,717 kbps     33,340 kbps     00:25:17.015    32,189 kbps     00:25:15.222    31,915 kbps     00:25:16.681    139,292 bytes   416,743 bytes   00:26:42.309   
4               0:33:22.041     0:10:23.581     25,298 kbps     30,592 kbps     00:33:46.691    30,271 kbps     00:33:46.149    30,189 kbps     00:33:43.396    131,893 bytes   377,196 bytes   00:33:47.066   
5               0:43:45.622     0:06:37.563     25,029 kbps     30,569 kbps     00:49:17.245    28,215 kbps     00:43:51.670    27,979 kbps     00:44:37.257    130,488 bytes   411,230 bytes   00:49:18.205   
6               0:50:23.186     0:05:36.210     25,598 kbps     39,447 kbps     00:53:48.225    37,178 kbps     00:53:48.141    34,852 kbps     00:53:47.891    133,455 bytes   477,750 bytes   00:53:48.558   
7               0:55:59.397     0:06:22.715     26,133 kbps     32,861 kbps     00:56:23.213    30,230 kbps     00:56:19.209    29,406 kbps     00:57:59.517    136,246 bytes   500,256 bytes   00:58:30.298   
8               1:02:22.113     0:08:24.128     26,221 kbps     36,965 kbps     01:04:09.303    34,844 kbps     01:04:09.053    34,015 kbps     01:04:08.803    136,702 bytes   422,324 bytes   01:04:21.107   
9               1:10:46.241     0:08:08.321     28,366 kbps     32,925 kbps     01:11:30.995    32,131 kbps     01:11:27.116    31,354 kbps     01:11:26.865    147,889 bytes   395,441 bytes   01:13:51.093   
10              1:18:54.563     0:06:58.584     24,071 kbps     32,025 kbps     01:25:40.218    29,777 kbps     01:19:03.113    29,571 kbps     01:19:02.487    125,497 bytes   363,402 bytes   01:19:09.578   
11              1:25:53.148     0:08:15.995     25,125 kbps     30,304 kbps     01:26:40.195    28,482 kbps     01:32:00.264    28,310 kbps     01:31:54.759    130,990 bytes   415,518 bytes   01:30:45.940   
12              1:34:09.143     0:11:29.188     28,370 kbps     35,447 kbps     01:40:36.238    34,127 kbps     01:40:32.151    33,090 kbps     01:40:29.064    147,909 bytes   456,387 bytes   01:40:46.707   
13              1:45:38.332     0:00:01.000     7,952 kbps      0 kbps          00:00:00.000    0 kbps          00:00:00.000    0 kbps          00:00:00.000    43,261 bytes    203,327 bytes   01:45:39.166   

STREAM DIAGNOSTICS:

File            PID             Type            Codec           Language                Seconds                 Bitrate                 Bytes           Packets         
----            ---             ----            -----           --------                --------------          --------------          -------------   -----           
00003.M2TS      4113 (0x1011)   0x1B            AVC                                     6339.166                25,996                  20,599,101,897  112,040,152     
00003.M2TS      4352 (0x1100)   0x80            LPCM            eng (English)           6339.166                1,544                   1,223,768,116   7,616,814       
00003.M2TS      4353 (0x1101)   0x80            LPCM            jpn (Japanese)          6339.166                1,544                   1,223,768,116   7,616,814       
00003.M2TS      4608 (0x1200)   0x90            PGS             jpn (Japanese)          6339.166                16                      13,057,085      77,651         
00003.M2TS      4609 (0x1201)   0x90            PGS             jpn (Japanese)          6339.166                2                       1,449,835       8,681


Extra: UK Radio Spot
Code: Select all
QUICK SUMMARY:

Disc Title: TCBD_0442
Disc Size: 24,938,925,540 bytes
Protection: AACS
BD-Java: No
Playlist: 00004.MPLS
Size: 82,501,632 bytes
Length: 0:00:28.828
Total Bitrate: 22.89 Mbps
Video: MPEG-4 AVC Video / 19964 kbps / 1080i / 29.970 fps / 16:9 / High Profile 4.1
Audio: English / LPCM Audio / 2.0 / 48 kHz / 1536 kbps / 16-bit
Subtitle: Japanese / 67.309 kbps
*N=New to collection :-D, U=Upgrade from DVD :), DD=Double Dipping :wink:, R=Replacement for damaged disc :-?



“Knowledge, like air, is vital to life. Like air, no one should be denied it.”
User avatar
Davy_Lee
 
Posts: 1499
Joined: 19 Jan 2010 11:13

Re: BD Info Scans

Postby Davy_Lee » 13 Feb 2016 12:36

DOUBLE IMPACT: L.E. Mediabook (NSM Records)

Code: Select all
DISC INFO:

Disc Title:     Double Impact
Disc Size:      23'821'726'796 bytes
Protection:     AACS
BD-Java:        Yes
BDInfo:         0.5.4

PLAYLIST REPORT:

Name:                   00004.MPLS
Length:                 1:49:42 (h:m:s)
Size:                   18'870'758'784 bytes
Total Bitrate:          22.93 Mbps

VIDEO:

Codec                   Bitrate             Description     
-----                   -------             -----------     
MPEG-4 AVC Video        17991 kbps          1080p / 23.976 fps / 16:9 / High Profile 4.1

AUDIO:

Codec                           Language        Bitrate         Description     
-----                           --------        -------         -----------     
DTS-HD Master Audio             English         1616 kbps       2.0 / 48 kHz / 1616 kbps / 16-bit (DTS Core: 2.0 / 48 kHz / 1509 kbps / 16-bit)
DTS-HD Master Audio             German          1795 kbps       2.0 / 48 kHz / 1795 kbps / 16-bit (DTS Core: 2.0 / 48 kHz / 1509 kbps / 16-bit)

SUBTITLES:

Codec                           Language        Bitrate         Description     
-----                           --------        -------         -----------     
Presentation Graphics           English         13.684 kbps                     
Presentation Graphics           German          17.506 kbps
*N=New to collection :-D, U=Upgrade from DVD :), DD=Double Dipping :wink:, R=Replacement for damaged disc :-?



“Knowledge, like air, is vital to life. Like air, no one should be denied it.”
User avatar
Davy_Lee
 
Posts: 1499
Joined: 19 Jan 2010 11:13

Re: BD Info Scans

Postby Markus_Lang » 26 Apr 2016 18:25

Eden Log — German edition — Sunfilm Entertainment — Region ABC

Image

Code: Select all
Disc Title: EDEN_LOG
Disc Size: 35 108 704 647 bytes
Protection: AACS
AACS MKB version: 17
BD-Java: No
Playlist: 00000.MPLS
Size: 27 513 421 824 bytes
Length: 1:37:27.440
Total Bitrate: 37,64 Mbps
Video: MPEG-4 AVC Video / 27982 kbps / 1080i / 25 fps / 16:9 / High Profile 4.1
Audio: German / DTS-HD Master Audio / 7.1 / 48 kHz / 2595 kbps / 16-bit (DTS Core: 5.1 / 48 kHz / 1509 kbps / 16-bit)
Audio: German / Dolby TrueHD Audio / 7.1 / 48 kHz / 2209 kbps / 16-bit (AC3 Embedded: 5.1 / 48 kHz / 640 kbps)
Audio: French / Dolby Digital Audio / 5.1 / 48 kHz / 640 kbps
Audio: French / Dolby Digital Audio / 2.0 / 48 kHz / 224 kbps / DN -4dB
Subtitle: German / 18,273 kbps
Subtitle: German / 54,678 kbps
User avatar
Markus_Lang
 
Posts: 1314
Joined: 21 Aug 2004 14:31
Location: Helsinki, Finland

Re: BD Info Scans

Postby Markus_Lang » 07 Oct 2016 16:29

The Trust — Scandinavian Blu-ray by Future Film

Image

Code: Select all
Disc Title: The Trust
Disc Size: 22 945 427 467 bytes
Protection: AACS
AACS MKB version: 60
BD-Java: Yes
Playlist: 00019.MPLS
Size: 21 011 690 880 bytes
Length: 1:31:18.222
Total Bitrate: 30,68 Mbps
Video: MPEG-4 AVC Video / 25254 kbps / 1080p / 23,976 fps / 16:9 / High Profile 4.1
Audio: English / Dolby Digital Audio / 5.1 / 48 kHz / 640 kbps
Audio: English / DTS-HD Master Audio / 5.1 / 48 kHz / 3089 kbps / 24-bit (DTS Core: 5.1 / 48 kHz / 1509 kbps / 24-bit)
Subtitle: Norwegian / 13,506 kbps
Subtitle: Swedish / 13,588 kbps
Subtitle: Finnish / 13,549 kbps
Subtitle: Danish / 13,652 kbps
User avatar
Markus_Lang
 
Posts: 1314
Joined: 21 Aug 2004 14:31
Location: Helsinki, Finland

Re: BD Info Scans

Postby Markus_Lang » 07 Oct 2016 16:32

Devil’s Pass — Scandinavian Blu-ray by Svensk Filmindustri

Image

Code: Select all
Disc Title: DEVILS PASS
Disc Size: 16 605 734 635 bytes
Protection: AACS
AACS MKB version: 44
BD-Java: No
Playlist: 00003.MPLS
Size: 16 473 698 304 bytes
Length: 1:40:15.426
Total Bitrate: 21,91 Mbps
Video: MPEG-4 AVC Video / 18181 kbps / 1080p / 23,976 fps / 16:9 / High Profile 4.1
Audio: English / Dolby Digital Audio / 5.1 / 48 kHz / 640 kbps
Audio: English / DTS-HD Master Audio / 5.1 / 48 kHz / 1723 kbps / 16-bit (DTS Core: 5.1 / 48 kHz / 1509 kbps / 16-bit)
Subtitle: Swedish / 24,770 kbps
Subtitle: Danish / 27,803 kbps
Subtitle: Norwegian / 22,832 kbps
Subtitle: Finnish / 24,747 kbps
User avatar
Markus_Lang
 
Posts: 1314
Joined: 21 Aug 2004 14:31
Location: Helsinki, Finland

Re: BD Info Scans

Postby Markus_Lang » 07 Oct 2016 16:34

The Intouchables — Scandinavian Blu-ray by Scanbox

Image

Code: Select all
Disc Title: INTOUCHABLES
Disc Size: 22 379 828 492 bytes
Protection: AACS
AACS MKB version: 33
BD-Java: No
Playlist: 00013.MPLS
Size: 19 182 120 960 bytes
Length: 1:52:14.458
Total Bitrate: 22,79 Mbps
Video: MPEG-4 AVC Video / 18999 kbps / 1080p / 24 fps / 16:9 / High Profile 4.1
Audio: English / Dolby Digital Audio / 5.1 / 48 kHz / 640 kbps / DN -4dB
Audio: English / DTS-HD Master Audio / 5.1 / 48 kHz / 1754 kbps / 16-bit (DTS Core: 5.1 / 48 kHz / 1509 kbps / 16-bit / DN -4dB)
Subtitle: Swedish / 25,184 kbps
Subtitle: Danish / 24,675 kbps
Subtitle: Norwegian / 23,257 kbps
Subtitle: Finnish / 19,553 kbps
User avatar
Markus_Lang
 
Posts: 1314
Joined: 21 Aug 2004 14:31
Location: Helsinki, Finland

Re: BD Info Scans

Postby Markus_Lang » 23 Jan 2017 19:06

Image

Here is a comparison between the American and the Scandinavian release of Ratatouille.

They seem to have exactly the same video track, but the audio tracks differ: the American has 24-bit PCM at 6912 kbps, but the Scandinavian has 16-bit at 4608 kbps.

Also, annoingly the PCM is only 5.1-channel (on both) but the Dolby Digital is 5.1-EX.

American bit-rate:

Image

Code: Select all
Disc Title: RATATOUILLE
Disc Size: 48 317 304 125 bytes
Protection: AACS
AACS MKB version: 4
BD-Java: Yes
Playlist: 00001.MPLS
Size: 28 606 593 024 bytes
Length: 1:50:33.376
Total Bitrate: 34,50 Mbps
Video: MPEG-4 AVC Video / 23426 kbps / 1080p / 23,976 fps / 16:9 / High Profile 4.1
Video: MPEG-4 AVC Video (1) / 1934 (23826) kbps / 1080p / 23,976 fps / 16:9 / High Profile 4.1
Video: MPEG-4 AVC Video (2) / 1934 (23831) kbps / 1080p / 23,976 fps / 16:9 / High Profile 4.1
Audio: English / LPCM Audio / 5.1 / 48 kHz / 6912 kbps / 24-bit
Audio: English / Dolby Digital EX Audio / 5.1-EX / 48 kHz / 640 kbps
Audio: French / Dolby Digital EX Audio / 5.1-EX / 48 kHz / 640 kbps
Audio: Spanish / Dolby Digital EX Audio / 5.1-EX / 48 kHz / 640 kbps
* Audio: English / Dolby Digital Audio / 2.0 / 48 kHz / 192 kbps / DN -4dB
Subtitle: English / 37,525 kbps
Subtitle: French / 33,144 kbps
Subtitle: Spanish / 32,704 kbps
* Subtitle: English / 87,217 kbps


Scandinavian bit-rate:

Image

Code: Select all
Disc Title: RATATOUILLE_SCY
Disc Size: 43 615 568 305 bytes
Protection: AACS
AACS MKB version: 4
BD-Java: Yes
Playlist: 00001.MPLS
Size: 27 633 211 392 bytes
Length: 1:50:33.376
Total Bitrate: 33,33 Mbps
Video: MPEG-4 AVC Video / 23426 kbps / 1080p / 23,976 fps / 16:9 / High Profile 4.1
Video: MPEG-4 AVC Video (1) / 1193 (23743) kbps / 1080p / 23,976 fps / 16:9 / High Profile 4.1
Audio: English / LPCM Audio / 5.1 / 48 kHz / 4608 kbps / 16-bit
Audio: English / Dolby Digital EX Audio / 5.1-EX / 48 kHz / 640 kbps
Audio: Swedish / Dolby Digital EX Audio / 5.1-EX / 48 kHz / 640 kbps
Audio: Finnish / Dolby Digital EX Audio / 5.1-EX / 48 kHz / 640 kbps
Audio: Icelandic / Dolby Digital EX Audio / 5.1-EX / 48 kHz / 640 kbps
* Audio: English / Dolby Digital Audio / 2.0 / 48 kHz / 192 kbps / DN -4dB
* Audio: Swedish / Dolby Digital Audio / 2.0 / 48 kHz / 192 kbps / DN -4dB
* Audio: Finnish / Dolby Digital Audio / 2.0 / 48 kHz / 192 kbps / DN -6dB
Subtitle: English / 33,181 kbps
Subtitle: English / 37,525 kbps
Subtitle: Swedish / 27,380 kbps
Subtitle: Finnish / 31,193 kbps
Subtitle: Finnish / 0,681 kbps
Subtitle: Icelandic / 33,591 kbps
Subtitle: Icelandic / 0,824 kbps
* Subtitle: English / 87,217 kbps
User avatar
Markus_Lang
 
Posts: 1314
Joined: 21 Aug 2004 14:31
Location: Helsinki, Finland

Re: BD Info Scans

Postby Markus_Lang » 21 Sep 2017 16:14

Here is a scan of the French 3D-Blu-ray of The Little Prince.

MPEG-4:
Image

MVC:
Image

Code: Select all
Disc Title: The_Little_Prince_3D
Disc Size: 46 292 325 635 bytes
Protection: AACS
AACS MKB version: 57
BD-Java: Yes
Playlist: 00001.MPLS
Size: 44 000 679 936 bytes
Length: 1:46:34.388
Total Bitrate: 55,05 Mbps
Video: MPEG-4 AVC Video / 25024 kbps / 1080p / 23,976 fps / 16:9 / High Profile 4.1
Video: MPEG-4 MVC Video / 16003 kbps /
Audio: English / Dolby TrueHD Audio / 7.1 / 48 kHz / 3870 kbps / 24-bit (AC3 Embedded: 5.1-EX / 48 kHz / 640 kbps / DN -4dB)
Audio: French / Dolby TrueHD Audio / 7.1 / 48 kHz / 3868 kbps / 24-bit (AC3 Embedded: 5.1-EX / 48 kHz / 640 kbps / DN -4dB)
Subtitle: English / 23,867 kbps
Subtitle: French / 28,474 kbps
User avatar
Markus_Lang
 
Posts: 1314
Joined: 21 Aug 2004 14:31
Location: Helsinki, Finland

Next

Return to DVD & Blu-Ray Discussion

Who is online

Users browsing this forum: No registered users and 1 guest

cron